новый адрес зеркало Трейдер / Сезон: 1 / Серии: 1-9 из 16 [2022, Детектив, HDTVRip] смотреть онлайн, скачать торрент vk.piratbit.fun
Аватар: Путь воды

Лицензия

Сансара

1 сезон

скачать смотреть онлайн John Wick Chapter 4

MVO

Крик 6

Дубляж

13 клиническая

3 сезон

Восстание зловещих мертвецов

Дубляж

Одни из нас

Дубляж

Dead Island 2 Gold

Gold

Deluxe

Deluxe

pack

Рекомендуем

ВАЖНО

ВАЖНО

30

Repack

The Lord of the Rings: Gollum

Лицензия

jed

RePack

nioh2

RePack

RDR2

RePack

NEED FOR SPEED™ PAYBACK

RePack

скачать торрент

Кинопоиск HD

Острые козырьки 6 сезон

6 сезон

FAR CRY 6

RePack

скачать торрент

Лицензия

скачать торрент

MVO

1

1 сезон

скачать торрент

1 сезон

скачать торрент

Лицензия

  

Трейдер / Сезон: 1 / Серии: 1-9 из 16 (Энтони Уоллер) [2022, Детектив, HDTVRip]

Трейдер через торрент vk.piratbit.fun

Раздают: 2 [ 0 KB/s ] Качают: 3 [ 0 KB/s ]
Размер: 5.85 GB | Добавлен: 2 д. 3 ч. назад | Торрент скачан:7 раз
Смотреть онлайн | Скачать | Поддержите нас   

16-05-2023 03:48 Трейдер Скачать торрент  

Трейдер
Год выпуска: 2022
Страна: Россия
Жанр: Детектив
Продолжительность: ~ 00:50:00 серия
Субтитры: отсутствуют

Режиссер: Энтони Уоллер



В ролях: Михаил Гаврилов-Третьяков, Анна Попова, Энджел Бонани, Кэролайн Гудолл, Кори Джонсон, Сергей Пускепалис, Агния Дитковските, Гонул Ада Наги, Джейми Бамбер, Фёдор Лавров, Элена Субейран, Виталий Коваленко, Александр Соколовский, Юрий Беляев, Михаил Горевой, Кирилл Полухин, Любовь Германова, Юрий Назаров, Екатерина Кузнецова (II), Даниэль Черныш, Вольфганг Черни, Вячеслав Чепурченко, Рихард Леперс, Стефани Елизавета Бурмакова

Описание: Действие разворачивается с 1995 по 2003 год. Молодой амбициозный нефтетрейдер Олег Нестеров оказывается вовлеченным в шпионские игры между спецслужбами России и США во время правления Саддама Хуссейна и становится непосредственным участником исторических событий, связанных с падением режима и началом войны в Ираке. Принципиальный и неопытный Олег постоянно сталкивается со сложным выбором: коррумпированный начальник или криминальный партнер, предавшая невеста или чужая жена, равнодушие к бедам простых людей или соучастие в государственных преступлениях, деньги или любовь, правда или свобода…

Качество: HDTVRip
Формат: AVI

Видео: XviD, ~ 1590 Кбит/с, 720x400, 25 кадр/с
Аудио: 48.0 kHz, AC3 Dolby Digital, 2/0 (L,R) ch, ~ 192 kbps
скриншот  скриншот  скриншот  скриншот  скриншот  скриншот  

General
Complete name: C:01.Трейдер.s01.E01.(2022).HDTVRip.by.Nicodem.Files-x.avi
Format: AVI
Format/Info: Audio Video Interleave
File size: 632 MiB
Duration: 49mn 16s
Overall bit rate: 1 792 Kbps
Writing application: VirtualDubMod 1.5.10.3 | www.virtualdub-fr.org || (build 2550/release)
Writing library: VirtualDub build 35491/release

Video
ID: 0
Format: MPEG-4 Visual
Format profile: Advanced Simple@L5
Format settings, BVOP: 1
Format settings, QPel: No
Format settings, GMC: No warppoints
Format settings, Matrix: Custom
Codec ID: XVID
Codec ID/Hint: XviD
Duration: 49mn 16s
Bit rate: 1 590 Kbps
Width: 720 pixels
Height: 400 pixels
Display aspect ratio: 16:9
Frame rate: 25.000 fps
Color space: YUV
Chroma subsampling: 4:2:0
Bit depth: 8 bits
Scan type: Progressive
Compression mode: Lossy
Bits/(Pixel*Frame): 0.221
Stream size: 561 MiB (89%)
Writing library: XviD 73

Audio
ID: 1
Format: AC-3
Format/Info: Audio Coding 3
Mode extension: CM (complete main)
Codec ID: 2000
Duration: 49mn 16s
Bit rate mode: Constant
Bit rate: 192 Kbps
Channel(s): 2 channels
Channel positions: Front: L R
Sampling rate: 48.0 KHz
Bit depth: 16 bits
Compression mode: Lossy
Stream size: 67.7 MiB (11%)
Alignment: Split accross interleaves
Interleave, duration: 40 ms (1.00 video frame)
Interleave, preload duration: 500 ms

Внимание! Раздача ведётся путём добавления новых серий; при каждом добавлении создаётся новый торрент.
Чтобы начать докачку новой серии, пользователям необходимо сделать следующее:
1. Остановить скачивание;
2. Удалить старый торрент у себя из клиента (старые серии удалять не надо);
3. Скачать новый торрент и запустить его у себя в клиенте вместо старого, при этом указать клиенту путь в старую папку куда и должно происходить скачивание новых серий. Ваш клиент при этом должен произвести хеширование (проверку) старой папки и будет докачивать только те серии, которых у вас ещё нет. Старые серии при этом не удаляются, а продолжают раздаваться! Eсли вы уже удалили старые серии, то предотвратить повторную закачку старых серий можно, отжав галочку в соответствующих местах при запуске нового торрента.




Скачать Трейдер через торрент https://i2.imageban.ru/out/2023/05/15/208145ae51d326aaa90bd9acb3745f67.jpg Скачать, смотреть онлайн Трейдер бесплатно в хорошем качестве Описание: Действие разворачивается с 1995 по 2003 год. Молодой амбициозный нефтетрейдер Олег Нестеров оказывается вовлеченным в шпионские ... 9.2 10 11
Торрент: Зарегистрирован [2023-05-26 03:14] · скачан: 7 раз
Статус: √ проверено
Размер: 5.85 GB
Как cкачать? Как скачать Трейдер через торрент | UTorrent

% Раздел Тема Автор DL S | L
Наши сериалы [ 5.41 GB ] Трейдер / Сезон: 1 / Серии: 1-9 из 16 | | HDTVRip-AVC bober100 Скачать
6 | 5



Последний раз редактировалось: bober100 (2023-05-23 17:24), всего редактировалось 4 раз(а)

28-11-2019 20:33  


Отключить вcю реклaмy на сайте, в т.ч. и в плеере онлайн просмотра!

    Дорогой пользователь! Огромная просьба, поблагодарите релизера, оцените раздачу и оставьте свои комментарий, если Вы скачали Трейдер через торрент бесплатно!!
    Комментировать посты могут только пользователи прошедшие не сложную регистрацию
    Показать сообщения:    


    Трейдер через торрент
    Скачать бесплатно Трейдер
    Трейдер скачать торрент
    Трейдер смотреть онлайн
    Cкачать фильм Трейдер бесплатно
    Трейдер скачать торрент в хорошем качестве
    Трейдер смотреть онлайн бесплатно в хорошем качестве
    Вы не можете начинать темы
    Вы не можете отвечать на сообщения
    Вы не можете редактировать свои сообщения
    Вы не можете удалять свои сообщения
    Вы не можете голосовать в опросах
    Вы не можете прикреплять файлы к сообщениям
    Вы можете скачивать файлы