новый адрес зеркало Жить жизнь / Сезон: 1 / Серии: 1-8 из 8 [2023, Триллер, WEBRip-AVC] смотреть онлайн, скачать торрент vk.piratbit.fun
Аватар: Путь воды

Лицензия

Сансара

1 сезон

скачать смотреть онлайн John Wick Chapter 4

MVO

Крик 6

Дубляж

13 клиническая

3 сезон

Восстание зловещих мертвецов

Дубляж

Одни из нас

Дубляж

Dead Island 2 Gold

Gold

Deluxe

Deluxe

pack

Рекомендуем

ВАЖНО

ВАЖНО

30

Repack

The Lord of the Rings: Gollum

Лицензия

jed

RePack

nioh2

RePack

RDR2

RePack

NEED FOR SPEED™ PAYBACK

RePack

скачать торрент

Кинопоиск HD

Острые козырьки 6 сезон

6 сезон

FAR CRY 6

RePack

скачать торрент

Лицензия

скачать торрент

MVO

1

1 сезон

скачать торрент

1 сезон

скачать торрент

Лицензия

  

Жить жизнь / Сезон: 1 / Серии: 1-8 из 8 (Артем Аксененко) [2023, Триллер, WEBRip-AVC]

Жить жизнь через торрент vk.piratbit.fun

Раздают: 9 [ 1 MB/s ] Качают: 6 [ 1004 KB/s ]
Размер: 4.92 GB | Добавлен: 2 д. 15 ч. назад | Торрент скачан:47 раз
Смотреть онлайн | Скачать | Поддержите нас   

04-05-2023 19:07 Жить жизнь Скачать торрент  

Жить жизнь
Год выпуска: 2023
Страна: Россия
Студия: Кинокомпания ООО «Старт Студио»
Жанр: Триллер
Продолжительность: ~ 00:45:00 серия
Субтитры: Русские (SDH)

Режиссер: Артем Аксененко

rating

В ролях: Любовь Аксёнова, Роман Васильев, Дарья Мороз, Евгений Шварц, Юрий Чурсин, Александра Ребенок, Игорь Гордин, Матвей Лыков, Даниил Воробьев, Анастасия Крылова, Юлия Джулай, Владислав Ценёв, Владислав Михальченко, Иван Породнов, Дарья Екамасова, Наталья Швец, Данил Акутин, Николай Ширяев

Описание: 30-летняя Аня — образованная и яркая девушка. У нее состоявшаяся карьера маркетолога и большой круг друзей. Трагическая смерть мужа не сломала ее, а заставила переосмыслить свою жизнь и идти дальше. Она не спешит заводить новые отношения, а выстраивает свою жизнь свободно и независимо, пока не встречает нового избранника. Аня сталкивается с осознанной манипуляцией с его стороны и понимает, что цикличность нездоровых отношений в ее жизни не случайна.

Качество: WEBRip-AVC
Формат: MKV

Видео: MPEG-4 AVC, ~ 1600 Кбит/с, 1024x432, 25 кадр/с
Аудио: 48 kHz, AC3 Dolby Digital, 3/2 (L, C, R, l, r) + LFE ch, ~384 Kbps
скриншот  скриншот  скриншот  скриншот  скриншот  скриншот  

General
Unique ID : 22681592373506004503189901758621153080 (0x111050D7DDAAC716411D49D652D1F738)
Complete name : F:\Жить жизнь.(2023).WEBRip.(AVC).Files-x\01.Жить жизнь.(2023).WEBRip.(AVC).by.Серый1779.Files-x.mkv
Format : Matroska
Format version : Version 4 / Version 2
File size : 658 MiB
Duration : 46 min 21 s
Overall bit rate : 1 986 kb/s
Encoded date : UTC 2023-04-13 10:09:18
Writing application : mkvmerge v32.0.0 ('Astral Progressions') 64-bit
Writing library : libebml v1.3.7 + libmatroska v1.5.0

Video
ID : 1
Format : AVC
Format/Info : Advanced Video Codec
Format profile : High@L4.1
Format settings : CABAC / 9 Ref Frames
Format settings, CABAC : Yes
Format settings, RefFrames : 9 frames
Codec ID : V_MPEG4/ISO/AVC
Duration : 46 min 21 s
Bit rate : 1 600 kb/s
Width : 1 024 pixels
Height : 432 pixels
Display aspect ratio : 2.40:1
Frame rate mode : Constant
Frame rate : 25.000 FPS
Color space : YUV
Chroma subsampling : 4:2:0
Bit depth : 8 bits
Scan type : Progressive
Bits/(Pixel*Frame) : 0.145
Stream size : 530 MiB (81%)
Writing library : x264 core 146 r2538 121396c
Encoding settings : cabac=1 / ref=9 / deblock=1:-2:-1 / analyse=0x3:0x133 / me=umh / subme=9 / psy=1 / psy_rd=1.00:0.15 / mixed_ref=1 / me_range=32 / chroma_me=1 / trellis=2 / 8x8dct=1 / cqm=0 / deadzone=21,11 / fast_pskip=0 / chroma_qp_offset=-3 / threads=18 / lookahead_threads=3 / sliced_threads=0 / nr=0 / decimate=1 / interlaced=0 / bluray_compat=0 / constrained_intra=0 / bframes=9 / b_pyramid=2 / b_adapt=2 / b_bias=0 / direct=1 / weightb=1 / open_gop=0 / weightp=2 / keyint=250 / keyint_min=25 / scenecut=40 / intra_refresh=0 / rc=2pass / mbtree=0 / bitrate=1600 / ratetol=1.0 / qcomp=0.60 / qpmin=0 / qpmax=69 / qpstep=4 / cplxblur=20.0 / qblur=0.5 / ip_ratio=1.40 / pb_ratio=1.30 / aq=2:1.00
Default : Yes
Forced : No
Color range : Limited
Color primaries : BT.709
Transfer characteristics : BT.709
Matrix coefficients : BT.709

Audio
ID : 2
Format : AC-3
Format/Info : Audio Coding 3
Format settings, Endianness : Big
Codec ID : A_AC3
Duration : 46 min 21 s
Bit rate mode : Constant
Bit rate : 384 kb/s
Channel(s) : 6 channels
Channel positions : Front: L C R, Side: L R, LFE
Sampling rate : 48.0 kHz
Frame rate : 31.250 FPS (1536 SPF)
Bit depth : 16 bits
Compression mode : Lossy
Stream size : 127 MiB (19%)
Service kind : Complete Main
Default : Yes
Forced : No

Text
ID : 3
Format : UTF-8
Codec ID : S_TEXT/UTF8
Codec ID/Info : UTF-8 Plain Text
Duration : 44 min 13 s
Bit rate : 78 b/s
Count of elements : 486
Stream size : 25.5 KiB (0%)
Default : Yes
Forced : No

Внимание! Раздача ведётся путём добавления новых серий; при каждом добавлении создаётся новый торрент.
Чтобы начать докачку новой серии, пользователям необходимо сделать следующее:
1. Остановить скачивание;
2. Удалить старый торрент у себя из клиента (старые серии удалять не надо);
3. Скачать новый торрент и запустить его у себя в клиенте вместо старого, при этом указать клиенту путь в старую папку куда и должно происходить скачивание новых серий. Ваш клиент при этом должен произвести хеширование (проверку) старой папки и будет докачивать только те серии, которых у вас ещё нет. Старые серии при этом не удаляются, а продолжают раздаваться! Eсли вы уже удалили старые серии, то предотвратить повторную закачку старых серий можно, отжав галочку в соответствующих местах при запуске нового торрента.




Скачать Жить жизнь через торрент https://i121.fastpic.org/big/2023/0408/fb/743b2789382740701f38a9f76dad9efb.jpg Скачать, смотреть онлайн Жить жизнь бесплатно в хорошем качестве Описание: 30-летняя Аня — образованная и яркая девушка. У нее состоявшаяся карьера маркетолога и большой круг друзей. Трагическая смерть ... 8.6 10 8
Торрент: Зарегистрирован [2023-05-25 14:50] · скачан: 47 раз
Статус: √ проверено
Размер: 4.92 GB
Как cкачать? Как скачать Жить жизнь через торрент | UTorrent

% Раздел Тема Автор DL S | L
Наши сериалы [ 13.71 GB ] Жить жизнь / Сезон: 1 / Серии: 1-8 из 8 | | 1080p bober100 Скачать
10 | 3
Наши сериалы [ 5.77 GB ] Жить жизнь / Сезон: 1 / Серии: 1-8 из 8 | | WEBRip bober100 Скачать
6 | 0

28-11-2019 20:33  


Отключить вcю реклaмy на сайте, в т.ч. и в плеере онлайн просмотра!

    Дорогой пользователь! Огромная просьба, поблагодарите релизера, оцените раздачу и оставьте свои комментарий, если Вы скачали Жить жизнь через торрент бесплатно!!
    Комментировать посты могут только пользователи прошедшие не сложную регистрацию
    Показать сообщения:    


    Жить жизнь через торрент
    Скачать бесплатно Жить жизнь
    Жить жизнь скачать торрент
    Жить жизнь смотреть онлайн
    Cкачать фильм Жить жизнь бесплатно
    Жить жизнь скачать торрент в хорошем качестве
    Жить жизнь смотреть онлайн бесплатно в хорошем качестве
    Вы не можете начинать темы
    Вы не можете отвечать на сообщения
    Вы не можете редактировать свои сообщения
    Вы не можете удалять свои сообщения
    Вы не можете голосовать в опросах
    Вы не можете прикреплять файлы к сообщениям
    Вы можете скачивать файлы